سكس عربي

سكس عربي افلام سكس عربى صور سكس عربي قصص محارم

افلام سكس مشاهدة مباشرة | منتدى سكس عربى
تشات عطعوط الصوتي مع كاميرا
قحاب سكس


العودة   منتديات عطعوط: xnxx سكس عربى افلام سكس قصص سكس صور سكس جنس عرب محارم 89 sex > افلام سكس > افلام سكس اجنبي

افلام سكس اجنبي افلام سكس اجنبي سكس أجنبي xxx porno hard sex movies


إضافة رد
 
أدوات الموضوع
  #1  
قديم 01-10-2010, 07:23 AM
rare3 rare3 غير متواجد حالياً
Junior Member
 
تاريخ التسجيل: Dec 2009
المشاركات: 48
افتراضي Brigitte 2009 XXX 1080p

Brigitte 2009 XXX 1080p

















اقتباس:
General
Complete name : E:Brigitte7.wmv
Format : Windows Media
File size : 551 MiB
Duration : 9mn 23s
Overall bit rate mode : Constant
Overall bit rate : 8 207 Kbps
Maximum Overall bit rate : 8 256 Kbps
Movie name : Brigitte FTV
Performer : FTVGirls.com
Law rating : Adult
Encoded date : UTC 2009-05-04 18:20:45.680
Writing application : 6.0.6000.16386 / Windows Movie Maker
Copyright : RHS Photo, LLC
Application : Windows Movie Maker 6.0.6000.16386
AspectRatioX : 1440
AspectRatioY : 1920

Video
ID : 2
Format : VC-1
Format profile : MP@HL
Codec ID : WMV3
Codec ID/Info : Windows Media Video 9
Codec ID/Hint : WMV3
Description of the codec : Windows Media Video 9 - Professional
Duration : 9mn 23s
Bit rate mode : Constant
Bit rate : 8 000 Kbps
Width : 1 440 pixels
Height : 1 080 pixels
Display aspect ratio : 4:3
Frame rate : 29.970 fps
Resolution : 8 bits
Scan type : Progressive
Bits/(Pixel*Frame) : 0.172
Stream size : 537 MiB (97%)
Language : English (US)

Audio
ID : 1
Format : WMA
Format version : Version 2
Codec ID : 161
Codec ID/Info : Windows Media Audio
Description of the codec : Windows Media Audio 9.2 - 192 kbps, 48 kHz, stereo (A/V) 1-pass CBR
Duration : 9mn 23s
Bit rate mode : Constant
Bit rate : 192 Kbps
Channel(s) : 2 channels
Sampling rate : 48.0 KHz
Resolution : 16 bits
Stream size : 12.9 MiB (2%)
Language : English (US)












Size: 5.12 GB






كود:
http://rapidshare.com/files/332419911/Brigitte_2009_XXX_1080p.part01.rar.html
http://rapidshare.com/files/332424985/Brigitte_2009_XXX_1080p.part02.rar.html
http://rapidshare.com/files/332421032/Brigitte_2009_XXX_1080p.part03.rar.html
http://rapidshare.com/files/332421271/Brigitte_2009_XXX_1080p.part04.rar.html
http://rapidshare.com/files/332425391/Brigitte_2009_XXX_1080p.part05.rar.html
http://rapidshare.com/files/332423618/Brigitte_2009_XXX_1080p.part06.rar.html
http://rapidshare.com/files/332420489/Brigitte_2009_XXX_1080p.part07.rar.html
http://rapidshare.com/files/332423570/Brigitte_2009_XXX_1080p.part08.rar.html
http://rapidshare.com/files/332420705/Brigitte_2009_XXX_1080p.part09.rar.html
http://rapidshare.com/files/332423555/Brigitte_2009_XXX_1080p.part10.rar.html
http://rapidshare.com/files/332422069/Brigitte_2009_XXX_1080p.part11.rar.html
http://rapidshare.com/files/332417467/Brigitte_2009_XXX_1080p.part12.rar.html
http://rapidshare.com/files/332417718/Brigitte_2009_XXX_1080p.part13.rar.html
http://rapidshare.com/files/332426656/Brigitte_2009_XXX_1080p.part14.rar.html
http://rapidshare.com/files/332422392/Brigitte_2009_XXX_1080p.part15.rar.html
http://rapidshare.com/files/332428132/Brigitte_2009_XXX_1080p.part16.rar.html
http://rapidshare.com/files/332423682/Brigitte_2009_XXX_1080p.part17.rar.html
http://rapidshare.com/files/332423427/Brigitte_2009_XXX_1080p.part18.rar.html
http://rapidshare.com/files/332420731/Brigitte_2009_XXX_1080p.part19.rar.html
http://rapidshare.com/files/332425210/Brigitte_2009_XXX_1080p.part20.rar.html
http://rapidshare.com/files/332425187/Brigitte_2009_XXX_1080p.part21.rar.html
http://rapidshare.com/files/332421875/Brigitte_2009_XXX_1080p.part22.rar.html
http://rapidshare.com/files/332421218/Brigitte_2009_XXX_1080p.part23.rar.html
http://rapidshare.com/files/332419033/Brigitte_2009_XXX_1080p.part24.rar.html
http://rapidshare.com/files/332417116/Brigitte_2009_XXX_1080p.part25.rar.html
http://rapidshare.com/files/332418111/Brigitte_2009_XXX_1080p.part26.rar.html
http://rapidshare.com/files/332417519/Brigitte_2009_XXX_1080p.part27.rar.html

no pass!
رد مع اقتباس
Sponsored Links
إضافة رد

أدوات الموضوع

تعليمات المشاركة
لا تستطيع إضافة مواضيع جديدة
لا تستطيع الرد على المواضيع
لا تستطيع إرفاق ملفات
لا تستطيع تعديل مشاركاتك

BB code is متاحة
كود [IMG] متاحة
كود HTML معطلة



Coin Dozer Cheats

الساعة الآن 12:47 AM.


Powered by vBulletin® Version 3.8.7
Copyright ©2000 - 2014, Jelsoft Enterprises Ltd.
سكس عربي افلام سكس عربي ءىءء صور سكس عربي قصص محارم sex 3شف3خف 3شف3خفزؤخة
xnxx nxnn xxnx xnnx Arabic Porno Hard Sex

قم بالتبليغ عن أي مشاركة تحتوي على صور سكس اطفال او على اي إساءة على هذا الإيميل {milta1980 at gmail.com}

We are not monitoring everything , if you see any bad or illegal posts , please report it A.S.A.P to this email:  {milta1980 at gmail.com}

سكس عربى منتديات زعرور منتديات سحلوب منتديات كسكوس منتديات كسكوس الانجليزية
سكس | افلام | sex xxnx | شراميط | سكس عربى | سكس محارم | افلام محارم | افلام ورعان | قصص سكس | صور | طيز | صور سكس | سكس عربي | افلام سكس | اغاني | قحاب | سكس خليجي | منايك | سحاق سحاقيات | XNNX XNX